Девон Ке Дев Махадев (Бог Богов Махадев) (1-10) / Devon Ke Dev Mahadev (Нихил Синха (Nikhil Sinha), Маниш Сингх (Manish Singh)

Девон Ке Дев Махадев (Бог Богов Махадев) (1-10) / Devon Ke Dev Mahadev (Нихил Синха (Nikhil Sinha), Маниш Сингх (Manish Singh)
Название:
Девон Ке Дев Махадев (Бог Богов Махадев) (1-10) / Devon Ke Dev Mahadev (Нихил Синха (Nikhil Sinha), Маниш Сингх (Manish Singh)
Размер:
21.83 GB
26
Скачать
Девон Ке Дев Махадев (Бог Богов Махадев) (1-10) / Devon Ke Dev Mahadev
Год выпуска: 2011
Страна: Индия (India)
Жанр: Духовная драма (Spiritual Drama)
Продолжительность: 30:00:00
Перевод: Субтитры
Русские субтитры: есть
Режиссер: Нихил Синха (Nikhil Sinha), Маниш Сингх (Manish Singh)
Описание: Это захватывающая история о Господе Шиве и Богине Шакти, переплетающаяся очень сложным и ярким узором. История о их долгой разлуке и неизбежном воссоединении. История полная глубины, очень драматичная, поучительная и возвышенная.
Доп. информация: Премьера сериала состоялась 18 декабря 2011 года, в настоящее время продолжает сниматься. В раздаче выложено 10 серий по 3 часа. С русскими субтитрами, дополнительно в папках с сериями фильма выложены и английские субтитры.
Сэмпл: http://multi-up.com/875855
качество: DVDRip
формат: AVI
Видео: XviD, 720x400 (1.80:1), 1345 Kb/s, 24.975 fps
Аудио: AC3 Dolby Digital, 384Kbps, 48 kHz, 3/2 (L,C,R,l,r) + LFE ch
Список выпусков/серий
Devon Ke Dev Mahadev - Disk 1 - DVDRip - XviD - [DDR]
Devon Ke Dev Mahadev - Disk 2 - DVDRip - XviD - [DDR]
Devon Ke Dev Mahadev - Disk 3 - DVDRip - XviD - [DDR]
Devon Ke Dev Mahadev - Disk 4 - DVDRip - XviD - [DDR]
Devon Ke Dev Mahadev - Disk 5 - DVDRip - XviD - [DDR]
Devon Ke Dev Mahadev - Disk 6 - DVDRip - XviD - [DDR]
Devon Ke Dev Mahadev - Disk 7 - DVDRip - XviD - [DDR]
Devon Ke Dev Mahadev - Disk 8 - DVDRip - XviD - [DDR]
Devon Ke Dev Mahadev - Disk 9 - DVDRip - XviD - [DDR]
Devon Ke Dev Mahadev - Disk 10 - DVDRip - XviD - [DDR]
MediaInfo
Общее
Полное имя: E:\Torrents закачки\Раздача\Devon Ke Dev Mahadev - DVDRip - XviD - [DDR] - rutracker\Devon Ke Dev Mahadev - Disk 1 - DVDRip - XviD - [DDR]\Devon Ke Dev Mahadev - Disk 1 - DVDRip - XviD - [DDR].avi
Формат: AVI
Формат/Информация: Audio Video Interleave
Профиль формата: OpenDML
Размер файла: 2,18 Гбайт
Продолжительность: 2 ч. 59 м.
Общий поток: 1739 Кбит/сек
Программа кодирования: VirtualDubMod 1.5.10.2 (build 2540/release)
Библиотека кодирования : VirtualDubMod build 2540/release
Видео
Идентификатор: 0
Формат: MPEG-4 Visual
Профиль формата: Advanced Simple@L5
Параметр BVOP формата: 1
Параметр QPel формата: Нет
Параметр GMC формата: Без точки перехода
Параметр матрицы формата: Выборочная
Идентификатор кодека: XVID
Идентификатор кодека/Подсказка: XviD
Продолжительность: 2 ч. 59 м.
Битрейт: 1343 Кбит/сек
Ширина : 720 пикселей
Высота: 400 пикселей
Соотношение сторон: 16:9
Частота кадров: 24,975 кадров/сек
Цветовое пространство: YUV
Субдискретизация насыщенности: 4:2:0
Битовая глубина: 8 бит
Тип развёртки: Прогрессивная
Метод сжатия: С потерями
Бит/(Пиксели*Кадры): 0.187
Размер потока: 1,68 Гбайт (77%)
Библиотека кодирования: XviD 1.2.1 (UTC 2008-12-04)
Аудио
Идентификатор: 1
Формат: AC-3
Формат/Информация: Audio Coding 3
Расширение режима: CM (complete main)
Параметр Endianness формата: Big
Идентификатор кодека: 2000
Продолжительность: 2 ч. 59 м.
Вид битрейта: Постоянный
Битрейт: 384 Кбит/сек
Каналы: 6 каналов
Расположение каналов: Front: L C R, Side: L R, LFE
Частота: 48,0 КГц
Битовая глубина: 16 бит
Метод сжатия: С потерями
Задержка видео: 20 мс.
Размер потока: 493 Мбайт (22%)
Выравнивание: Разделение по промежуткам
Продолжительность промежутка: 40 мс. (1,00 видеокадр)
Время предзагрузки промежутка: 500 мс.
Скриншоты
Пример титров:
98
00:06:49,119 --> 00:06:51,815
И что ты решила? Ты придешь?
99
00:07:00,664 --> 00:07:02,723
Отец очень по тебе скучает,...
100
00:07:03,900 --> 00:07:05,959
...но он чувствует себя таким беспомощным из-за Шивы.
101
00:07:10,941 --> 00:07:12,738
Приходи без него.
102
00:07:18,582 --> 00:07:20,106
Даже если ты придешь одна,...
103
00:07:21,618 --> 00:07:23,984
...отец будет очень рад.
104
00:07:25,522 --> 00:07:26,682
Я не знаю, сестра,...
105
00:07:27,257 --> 00:07:29,054
...разрешит ли мне Шива.
106
00:07:29,326 --> 00:07:30,623
Сати, он твой муж,...
107
00:07:32,262 --> 00:07:34,253
...но разрешения мужа не требуется,...
108
00:07:34,497 --> 00:07:36,294
...чтобы навестить отчий дом.
109
00:07:39,069 --> 00:07:40,730
Муж появляется в нашей жизни не сразу,...
110
00:07:42,038 --> 00:07:44,802
...а свой жизненный путь мы начинаем вместе с родителями.
111
00:07:47,310 --> 00:07:48,368
Так ты придешь?
112
00:07:49,312 --> 00:07:50,677
Придешь на обряд?
113
00:07:55,518 --> 00:07:57,452
Ты должна прийти, Сати,...
114
00:07:59,689 --> 00:08:02,214
...вне зависимости от того, разрешит ли тебе Шива или нет.
115
00:08:05,295 --> 00:08:07,855
Это же последний обряд в жизни отца.
116
00:08:09,232 --> 00:08:11,530
Разве тебе сложно это сделать ради отца.
117
00:08:13,036 --> 00:08:15,197
Скажи, ты придешь?
118
00:08:26,850 --> 00:08:27,908
Хорошо, сестра.
119
00:08:28,785 --> 00:08:29,911
Я приду.
120
00:08:57,447 --> 00:08:58,607
Я рада ...