Девон Ке Дев Махадев (Бог Богов Махадев) / Devon Ke Dev Mahadev (Нихил Синха / Nikhil Sinha, Маниш Сингх / Manish Singh) Русский дублированный

Девон Ке Дев Махадев (Бог Богов Махадев) / Devon Ke Dev Mahadev (Нихил Синха / Nikhil Sinha, Маниш Сингх / Manish Singh)  Русский дублированный
Название:
Девон Ке Дев Махадев (Бог Богов Махадев) / Devon Ke Dev Mahadev (Нихил Синха / Nikhil Sinha, Маниш Сингх / Manish Singh) Русский дублированный
Размер:
19.64 GB
42
Скачать
Девон Ке Дев Махадев (Бог Богов Махадев) / Devon Ke Dev Mahadev
Год выпуска: 2011
Страна: Индия
Жанр: Духовная драма / Spiritual Drama
Продолжительность: 02:59:38
Перевод: Одноголосый закадровый
Русские субтитры: нет
Режиссер: Нихил Синха / Nikhil Sinha, Маниш Сингх / Manish Singh
Описание: Это захватывающая история о Господе Шиве и Богине Шакти. История яркой любви, долгой разлуки и неизбежного воссоединения. Полная глубины, очень драматичная, поучительная и возвышенная сага...
Доп. информация: Премьера состоялась 18 декабря 2011 года, когда сериал начал транслироваться по индийскому ТВ, в настоящее время продолжает сниматься. По мере дублирования будем выкладывать сюда.
Сэмпл: http://multi-up.com/898648
качество: DVDRip
формат: AVI
Видео: XviD, 720x400 (1.80:1), 1345 Kb/s, 24.975 fps
Аудио: AC3 Dolby Digital, 383Kbps, 48 kHz
Список выпусков/серий
Devon Ke Dev Mahadev Disk1 Rus
Devon Ke Dev Mahadev Disk2 Rus
Devon Ke Dev Mahadev Disk3 Rus
Devon Ke Dev Mahadev Disk4 Rus
Devon Ke Dev Mahadev Disk5 Rus
Devon Ke Dev Mahadev Disk6 Rus
Devon Ke Dev Mahadev Disk7 Rus
Devon Ke Dev Mahadev Disk8 Rus
Devon Ke Dev Mahadev Disk9 Rus
MediaInfo
Общее
Полное имя : C:\Documents and Settings\12\Desktop\Devon Ke Dev Mahadev Disk1 Rus.avi
Формат : AVI
Формат/Информация : Audio Video Interleave
Профиль формата : OpenDML
Размер файла : 2,18 Гбайт
Продолжительность : 2 ч. 59 м.
Общий поток : 1739 Кбит/сек
Программа кодирования : VirtualDubMod 1.5.10.2 (build 2540/release)
Библиотека кодирования : VirtualDub build 32842/release
Видео
Идентификатор : 0
Формат : MPEG-4 Visual
Профиль формата : Advanced Simple@L5
Параметр BVOP формата : 1
Параметр QPel формата : Нет
Параметр GMC формата : Без точки перехода
Параметр матрицы формата : Выборочная
Идентификатор кодека : XVID
Идентификатор кодека/Подсказка : XviD
Продолжительность : 2 ч. 59 м.
Битрейт : 1343 Кбит/сек
Ширина : 720 пикселей
Высота : 400 пикселей
Соотношение сторон : 16:9
Частота кадров : 24,975 кадров/сек
Цветовое пространство : YUV
Субдискретизация насыщенности : 4:2:0
Битовая глубина : 8 бит
Тип развёртки : Прогрессивная
Метод сжатия : С потерями
Бит/(Пиксели*Кадры) : 0.187
Размер потока : 1,68 Гбайт (77%)
Библиотека кодирования : XviD 1.2.1 (UTC 2008-12-04)
Аудио
Идентификатор : 1
Формат : AC-3
Формат/Информация : Audio Coding 3
Расширение режима : CM (complete main)
Параметр Endianness формата : Big
Идентификатор кодека : 2000
Продолжительность : 2 ч. 59 м.
Вид битрейта : Постоянный
Битрейт : 384 Кбит/сек
Каналы : 2 канала
Расположение каналов : Front: L R
Частота : 48,0 КГц
Битовая глубина : 16 бит
Метод сжатия : С потерями
Размер потока : 493 Мбайт (22%)
Выравнивание : Соединение по промежуткам
Продолжительность промежутка : 40 мс. (1,00 видеокадр)
Время предзагрузки промежутка : 512 мс.
Скриншоты