Десять вопросов Далай-ламе / 10 questions for the Dalai Lama (Рик Рэй / Rick Ray)

Десять вопросов Далай-ламе / 10 questions for the Dalai Lama (Рик Рэй / Rick Ray)
Название:
Десять вопросов Далай-ламе / 10 questions for the Dalai Lama (Рик Рэй / Rick Ray)
Размер:
3.26 GB
23
Скачать
ДЕСЯТЬ ВОПРОСОВ ДАЛАЙ-ЛАМЕ / 10 QUESTIONS FOR THE DALAI LAMA
Путешествие одного человека по северным Гималаям
Год выпуска: 2006
Страна: США, Канада
Жанр: Документальный
Продолжительность: 01:26:31
Перевод: Студийный (одноголосый закадровый)
Русские субтитры: нет
Субтитры: немецкие (вшитые)
Режиссер: Рик Рэй / Rick Ray
Описание:
Возможно ли придерживаться ненасилия, когда тебе угрожает непосредственная опасность? Почему бедные кажутся счастливее богатых? Должно ли общество отказаться от своих традиций ради движения вперед? В своем фильме режиссер-документалист Рик Рэй пытается найти ответы на фундаментальные вопросы современности, опираясь на собственные наблюдения, почерпнутые им во время путешествия по Индии и Ближнему Востоку, а также на мудрость выдающегося духовного лидера, Четырнадцатого Далай-ламы.
Дополнительная информация:
Перевод: Анна Лисковец специально для фонда "Сохраним Тибет"
Озвучивание: Наталья Иноземцева
Техническая поддержка: Максим Брежестовский
Муксинг: Буддийская Дхарма
Сэмпл: http://multi-up.com/833735
Качество: DVB
Формат: TS
Видео: MPEG2, 720x576, 16:9, 4906 Kbps VBR, 25.000 fps, PAL, Interlaced BFF
Аудио 1: Русский, AC3, 2 ch, 48 kHz, 224 kbps
MediaInfo
General
ID : 1 (0x1)
Complete name : Десять_вопросов_Далай-ламе_2006_Mpeg2\Десять_вопросов_Далай-ламе_2006_Mpeg2.ts
Format : MPEG-TS
File size : 3.26 GiB
Duration : 1h 26mn
Overall bit rate mode : Variable
Overall bit rate : 5 399 Kbps
Maximum Overall bit rate : 35.5 Mbps
Video
ID : 4113 (0x1011)
Menu ID : 1 (0x1)
Format : MPEG Video
Format version : Version 2
Format profile : Main@Main
Format settings, BVOP : Yes
Format settings, Matrix : Custom
Format settings, GOP : Variable
Codec ID : 2
Duration : 1h 26mn
Bit rate mode : Variable
Bit rate : 4 906 Kbps
Maximum bit rate : 5 000 Kbps
Width : 720 pixels
Height : 576 pixels
Display aspect ratio : 4:3
Frame rate : 25.000 fps
Standard : PAL
Color space : YUV
Chroma subsampling : 4:2:0
Bit depth : 8 bits
Scan type : Interlaced
Scan order : Bottom Field First
Compression mode : Lossy
Bits/(Pixel*Frame) : 0.473
Stream size : 2.97 GiB (91%)
Color primaries : BT.601 PAL
Transfer characteristics : BT.470 System B, BT.470 System G
Matrix coefficients : BT.601
Audio
ID : 4352 (0x1100)
Menu ID : 1 (0x1)
Format : AC-3
Format/Info : Audio Coding 3
Mode extension : CM (complete main)
Format settings, Endianness : Big
Codec ID : 129
Duration : 1h 26mn
Bit rate mode : Constant
Bit rate : 224 Kbps
Channel(s) : 2 channels
Channel positions : Front: L R
Sampling rate : 48.0 KHz
Bit depth : 16 bits
Compression mode : Lossy
Delay relative to video : 16ms
Stream size : 139 MiB (4%)
Language : Russian
Скриншоты
Саундтрек:
(Score) Peter Kater - 10 Questions for the Dalai Lama - 2006, FLAC (image+.cue), lossless
10 вопросов Далай-ламе / Peter Kater - 10 Questions for the Dalai Lama - 2006, MP3 (tracks), 320 kbps