Барри Керзин. 2012.09.17. Буддизм в современном мире. Кызыл

Барри Керзин. 2012.09.17. Буддизм в современном мире. Кызыл
Название:
Барри Керзин. 2012.09.17. Буддизм в современном мире. Кызыл
Размер:
579 MB
4.1667
24
1
Скачать
Барри Керзин. 2012.09.17. Буддизм в современном мире. Кызыл
Год выпуска: 2012
Страна: Россия
Жанр: Буддийские наставления
Тип материала: Видеолекция
Продолжительность: 01:30:49
Язык: Английский + Русский (последовательный перевод)
Описание:
Досточтимый Барри Керзин в г. Кызыле, Тыва:

2012.09.17. Буддизм в современном мире
Доп. информация:
Организатор лекций: Фонд "Сохраним Тибет".
Перевод: Юлия Жиронкина.
Качество: DVDRip
Формат: MP4
Видео: AVC, 720x436, 16:9, 25.000 fps, vbr 758 Kbps, NTSC, BFF
Аудио: AAC, 44,1 kHz, 2 ch, 128 kbps
Сэмпл: http://sendfile.su/1093344
Скриншоты
Отчет MediaInfo
General
Complete name : I:\DHARMA\Барри_Керзин\2012_09_17__Буддизм_в_современном_мире\2012_09_17__Буддизм_в_современном_мире__Барри_Керзин__Кызыл__AVC_(1)\2012_09_17__Буддизм_в_современном_мире__Барри_Керзин__Кызыл__AVC_01(1).mp4
Format : MPEG-4
Format profile : Base Media / Version 2
Codec ID : mp42
File size : 579 MiB
Duration : 1h 30mn
Overall bit rate : 891 Kbps
Encoded date : UTC 2012-11-09 00:54:53
Tagged date : UTC 2012-11-09 00:54:53
Video
ID : 2
Format : AVC
Format/Info : Advanced Video Codec
Format profile : Main@L3.0
Format settings, CABAC : Yes
Format settings, ReFrames : 5 frames
Format settings, GOP : M=3, N=24
Codec ID : avc1
Codec ID/Info : Advanced Video Coding
Duration : 1h 30mn
Bit rate mode : Variable
Bit rate : 758 Kbps
Width : 720 pixels
Height : 435 pixels
Original height : 436 pixels
Display aspect ratio : 1.655
Original display aspect ratio : 16:9
Frame rate mode : Constant
Frame rate : 50.000 fps
Original frame rate : 25.000 fps
Standard : NTSC
Color space : YUV
Chroma subsampling : 4:2:0
Bit depth : 8 bits
Scan type : Interlaced
Scan order : Bottom Field First
Bits/(Pixel*Frame) : 0.048
Stream size : 493 MiB (85%)
Language : English
Encoded date : UTC 2012-11-09 00:54:53
Tagged date : UTC 2012-11-09 00:54:53
Audio
ID : 1
Format : AAC
Format/Info : Advanced Audio Codec
Format profile : LC
Codec ID : 40
Duration : 1h 30mn
Bit rate mode : Constant
Bit rate : 128 Kbps
Channel(s) : 2 channels
Channel positions : Front: L R
Sampling rate : 44.1 KHz
Compression mode : Lossy
Stream size : 83.2 MiB (14%)
Language : English
Encoded date : UTC 2012-11-09 00:54:53
Tagged date : UTC 2012-11-09 00:54:53
Барри Керзин
Барри Керзин – доктор медицины (США), личный врач Его Святейшества Далай-ламы и буддийский монах. Более двадцати лет проживает в Дхарамсале (Индия), оказывая профессиональную медицинскую помощь не только высоким ламам, но и малоимущим слоям населения.
Сочетая в себе многолетнюю практику буддийской медитации и знания западного ученого, Барри Керзин посвятил многие годы изучению влияния практик созерцания на психо-физическое здоровье человека, исследуя структурные и функциональные отличия мозга длительно практикующего медитацию от мозга обычного человека.
Барри Керзин - один из немногих врачей, осведомленных о состоянии посмертной медитации - «тукдам» и занимающихся практик способен оставаться в медитации на ясный свет, удерживая тело от распада и сохраняя внутреннее тепло. Барри Керзину трижды выпадала честь заботиться о великих созерцателях, погрузившихся в посмертное медитативное состояние.
По благословению Е.С. Далай-ламы, Барри Керзин преподает буддийскую философию, обучает основам медитации, проводит ретриты молчания в странах Северной Америки и Европы, а также в Японии и Монголии.
Все лекции наставника в каталоге